<?xml version="1.0" standalone="no"?>
<!DOCTYPE svg PUBLIC "-//W3C//DTD SVG 1.1//EN" "http://www.w3.org/Graphics/SVG/1.1/DTD/svg11.dtd">
<svg xmlns="http://www.w3.org/2000/svg">
<defs >
<font id="Oswald" horiz-adv-x="801" ><font-face
    font-family="Oswald"
    units-per-em="2048"
    panose-1="2 0 8 3 0 0 0 0 0 0"
    ascent="2444"
    descent="-591"
    alphabetic="0" />
<glyph unicode=" " horiz-adv-x="410" />
<glyph unicode="!" horiz-adv-x="524" d="M95 0V317H418V0H95ZM199 462L95 1800H438L315 462H199Z" />
<glyph unicode="&quot;" horiz-adv-x="758" d="M434 1202L433 1801H718L616 1202H434ZM130 1202L40 1801H334L333 1202H130Z" />
<glyph unicode="#" horiz-adv-x="1150" d="M485 871H627L643 985H501L485 871ZM153 0L241 616H99V871H277L293 985H99V1240H330L410 1801H619L538 1240H680L760 1801H969L888 1240H1024V985H851L835 871H1024V616H798L709 0H503L591 616H448L359 0H153Z" />
<glyph unicode="$" horiz-adv-x="1145" d="M529 -100V71Q416 81 331 123T194 233T118 384T93 568L457 637V588Q457 555 459 529T469 466T490 407T531 366T595 349Q698 349 698 472Q698 497 693 519T674 564T650 601T614 639T578 671T533 707T489 741L377 830Q324
872 293 899T218 972T152 1061T112 1162T94 1287Q94 1481 212 1598T529 1734V1931H625V1737Q808 1728 931 1611T1055 1321V1275L682 1225Q685 1279 685 1299Q685 1461 573 1461Q512 1461 482 1422T452 1331Q452 1259 490 1208T604 1099L727 1006Q798 953 841 917T930
830T1000 731T1041 619T1057 479Q1057 306 932 193T625 70V-100H529Z" />
<glyph unicode="%" horiz-adv-x="2041" d="M634 0L1211 1835H1391L813 0H634ZM1436 517V511Q1436 452 1438 413T1447 331T1466 265T1501 224T1555 208Q1594 208 1618 229T1654 297T1669 389T1673 511V516Q1673 567 1672 598T1668 667T1656 727T1636 769T1603 798T1555
807T1508 798T1475 770T1454 728T1442 669T1437 600T1436 517ZM1170 511V520Q1171 637 1191 725T1255 880T1374 981T1555 1016Q1660 1016 1735 982T1855 881T1920 726T1942 520V511Q1942 0 1555 0Q1170 0 1170 511ZM360 1306V1295Q360 1236 362 1197T371 1115T390
1049T425 1008T479 992Q518 992 542 1013T578 1081T593 1173T597 1295V1304Q597 1354 596 1385T591 1453T580 1512T559 1554T526 1582T479 1591Q447 1591 425 1577T390 1541T371 1479T362 1402T360 1306ZM94 1295V1301Q94 1419 114 1507T178 1663T297 1765T479
1800Q584 1800 659 1766T779 1664T844 1509T866 1303V1295Q866 784 479 784Q94 784 94 1295Z" />
<glyph unicode="&amp;" horiz-adv-x="1194" d="M606 313Q481 515 424 628Q405 609 392 547T378 414Q378 332 399 277T464 221Q534 221 606 313ZM507 1105Q556 1176 587 1265T619 1436Q619 1494 597 1538T522 1583Q436 1583 436 1433Q436 1278 507 1105ZM1129 262V-23Q1099
-29 1069 -29Q952 -29 795 121Q730 48 642 9T456 -30Q274 -30 170 88T66 389Q66 652 294 906Q134 1261 134 1434Q134 1606 231 1720T500 1834Q676 1834 785 1730T895 1451Q895 1288 822 1151T615 876L802 564Q843 671 843 874H1119Q1119 691 1085 577T969 342Q998
309 1041 288T1129 262Z" />
<glyph unicode="&apos;" horiz-adv-x="356" d="M101 1201L31 1799H335L264 1201H101Z" />
<glyph unicode="(" horiz-adv-x="696" d="M637 158V-64Q537 -65 459 -29T331 59T246 200T193 361T167 547T157 723T156 891Q156 898 156 901T156 910T156 921Q156 931 156 951Q156 1059 157 1120T167 1295T193 1481T245 1642T330 1783T458 1871T637 1907V1685Q598
1686 567 1665T516 1606T480 1520T458 1413T445 1299T440 1181T439 1074T441 983T443 921T442 859T440 769T439 662T445 545T457 430T480 323T515 238T567 178T637 158Z" />
<glyph unicode=")" horiz-adv-x="696" d="M110 -64V158Q149 157 180 178T231 237T266 323T289 430T301 545T306 662T307 768T306 859T304 921T305 983T307 1073T307 1180T302 1297T290 1412T267 1520T231 1605T180 1665T110 1685V1907Q181 1907 241 1891T346 1841T427
1770T488 1672T532 1563T561 1439T579 1314T588 1184T591 1062T592 947Q592 930 592 921T592 895Q592 788 591 727T581 551T555 365T503 203T417 60T289 -28T110 -64Z" />
<glyph unicode="*" horiz-adv-x="913" d="M158 974L320 1205L76 1299L150 1496L373 1378L346 1642H596L571 1377L794 1497L868 1298L622 1204L787 974L589 858L471 1093L354 858L158 974Z" />
<glyph unicode="+" horiz-adv-x="762" d="M70 583V806H265V1000H487V806H682V583H487V389H265V583H70Z" />
<glyph unicode="," horiz-adv-x="469" d="M153 -244L113 -78Q118 -78 128 -78Q154 -78 163 -78T182 -69T192 -46T194 -1H84V317H407Q407 287 407 229Q408 114 407 59T393 -73T355 -182T279 -234T153 -244Z" />
<glyph unicode="-" horiz-adv-x="429" d="M4 453V676H421V453H4Z" />
<glyph unicode="." horiz-adv-x="522" d="M99 0V317H424V0H99Z" />
<glyph unicode="/" horiz-adv-x="895" d="M91 0L668 1835H848L270 0H91Z" />
<glyph unicode="0" horiz-adv-x="1137" d="M704 528V1269Q704 1528 569 1528Q532 1528 506 1509T467 1464T446 1399T437 1332T435 1269V528Q435 497 437 468T448 401T470 336T509 289T569 270Q611 270 640 296T682 367T699 449T704 528ZM84 528V1269Q84 1389 112
1489T198 1668T349 1790T569 1834Q693 1834 787 1790T939 1668T1024 1489T1053 1269V528Q1053 413 1023 313T935 134T782 11T569 -35Q448 -35 354 10T201 133T114 311T84 528Z" />
<glyph unicode="1" horiz-adv-x="676" d="M225 0V1337H43V1602Q71 1619 118 1641T191 1678T249 1724T303 1801H569V0H225Z" />
<glyph unicode="2" horiz-adv-x="1067" d="M1018 1339Q1018 1220 981 1104T874 880T741 690T588 505T458 346H1018V0H60V309L498 936Q536 991 561 1030T614 1124T657 1233T672 1339Q672 1370 665 1402T642 1464T601 1512T540 1531Q512 1531 490 1518T453 1483T429
1431T415 1370T408 1304T405 1242T406 1187Q406 1170 406 1163H61V1276Q61 1375 77 1457T129 1611T220 1731T356 1807T540 1835Q768 1835 893 1702T1018 1339Z" />
<glyph unicode="3" horiz-adv-x="1094" d="M72 582H420Q420 576 420 562Q420 530 420 512T422 459T429 403T444 353T468 310T504 283T555 271T605 281T641 304T665 343T679 387T686 437T689 484T689 530Q689 655 628 723T442 789V1139Q503 1137 545 1144T621 1172T672
1234T689 1337Q689 1377 684 1407T666 1468T625 1514T555 1531Q527 1531 505 1520T468 1493T444 1450T430 1400T423 1344T420 1291T420 1241Q420 1229 420 1223H71V1337Q71 1570 197 1703T555 1836Q785 1836 912 1702T1039 1337Q1039 1224 993 1121T857 961Q952
891 995 777T1039 530Q1039 405 1013 305T931 127T780 7T555 -35Q445 -35 361 -7T224 69T136 189T88 341T72 521V582Z" />
<glyph unicode="4" horiz-adv-x="1107" d="M370 717H566V1257L370 717ZM62 437V719L502 1801H911V717H1079V437H911V0H566V437H62Z" />
<glyph unicode="5" horiz-adv-x="1115" d="M95 571H441Q440 522 441 489T445 416T455 351T475 304T507 271T553 260Q586 260 612 273T654 308T681 360T698 423T706 491T709 558T709 618Q709 637 709 645Q709 675 708 697T703 753T690 811T667 859T629 894T574
907Q525 907 488 865T428 767H133V1801H990V1459H457V1134Q553 1193 632 1193Q728 1193 802 1162T922 1080T997 956T1038 807T1049 640Q1049 551 1041 475T1014 319T960 178T873 67T744 -8T569 -35Q458 -35 374 -3T238 83T153 216T108 381T95 571Z" />
<glyph unicode="6" horiz-adv-x="1112" d="M438 762V529Q438 498 440 469T451 402T473 337T512 290T572 271Q592 271 609 276T640 295T663 320T680 354T692 391T700 433T705 473T707 514T708 548T708 580Q708 614 707 635T703 692T690 751T667 798T629 834T572
846Q491 846 438 762ZM87 550V1188Q87 1284 100 1370T147 1544T234 1694T374 1796T572 1835T770 1795T913 1685T998 1520T1027 1314V1282H688Q688 1320 687 1346T680 1410T662 1471T627 1512T572 1530Q433 1530 436 1178V1075Q528 1137 643 1137Q739 1137 812 1108T932
1029T1006 908T1046 760T1057 590Q1057 494 1041 407T989 239T897 100T759 6T572 -29Q471 -29 389 4T251 94T158 225T104 381T87 550Z" />
<glyph unicode="7" horiz-adv-x="827" d="M155 0L467 1496H29V1799H804V1622L494 0H155Z" />
<glyph unicode="8" horiz-adv-x="1088" d="M514 251T544 251T597 261T635 284T661 322T677 366T684 416T687 463T688 508Q688 804 544 804Q399 804 399 508Q399 480 399 463T403 415T411 366T427 322T453 284T491 261ZM214 952Q82 1088 82 1337Q82 1568 199 1702T544
1836T887 1702T1003 1337Q1003 1084 872 952Q920 913 952 865T1000 760T1022 650T1028 528Q1028 400 1003 301T922 126T772 9T544 -31Q60 -31 60 528Q60 671 91 774T214 952ZM544 1074Q567 1074 585 1086T616 1115T636 1161T648 1212T654 1269T656 1321T657 1367Q657
1561 544 1561Q508 1561 484 1542T448 1489T433 1428T429 1367T430 1312T434 1251T444 1185T464 1131T496 1089T544 1074Z" />
<glyph unicode="9" horiz-adv-x="1135" d="M702 1034V1271Q702 1311 697 1349T680 1432T638 1503T566 1530Q538 1530 516 1518T481 1488T457 1440T443 1387T436 1328T433 1275T432 1228Q432 1197 432 1182T434 1133T441 1079T456 1032T480 990T516 964T566 953Q606
953 642 976T702 1034ZM101 489V519H442Q442 488 443 467T447 414T458 359T480 315T515 282T566 271T618 287T655 325T679 385T694 451T701 525T704 592T704 650Q704 664 704 670V715Q614 665 504 665Q81 665 81 1212Q81 1307 97 1394T150 1563T242 1704T380 1799T566
1835Q666 1835 748 1799T886 1703T979 1561T1034 1393T1051 1212V652Q1051 549 1039 458T992 275T905 118T765 12T566 -29Q452 -29 364 10T220 119T134 283T101 489Z" />
<glyph unicode=":" horiz-adv-x="518" d="M99 151V466H420V151H99ZM99 897V1213H420V897H99Z" />
<glyph unicode=";" horiz-adv-x="510" d="M154 -95L114 71Q119 71 129 71Q155 71 164 71T183 80T193 103T195 148H85V466H408Q408 436 408 378Q409 263 408 208T394 76T356 -33T280 -85T154 -95ZM87 897V1213H408V897H87Z" />
<glyph unicode="&lt;" horiz-adv-x="865" d="M74 525V799L750 1272V979L306 664Q380 610 750 345V53L74 525Z" />
<glyph unicode="=" horiz-adv-x="762" d="M70 258V480H682V258H70ZM70 583V806H682V583H70Z" />
<glyph unicode="&gt;" horiz-adv-x="865" d="M115 53V345L559 664L115 979V1272L791 799V525L115 53Z" />
<glyph unicode="?" horiz-adv-x="974" d="M259 0V324H593V0H259ZM259 480V868Q325 913 384 969T496 1094T578 1242T609 1402Q609 1471 577 1506T483 1541Q427 1541 399 1496T370 1382Q370 1320 389 1258L75 1198Q46 1309 46 1408Q46 1600 155 1717T483 1835Q704
1835 825 1718T946 1382Q946 1188 853 1022T593 760V480H259Z" />
<glyph unicode="@" horiz-adv-x="1727" d="M1245 152L1353 -74Q1105 -130 937 -130Q706 -130 542 -71T277 107T130 394T83 791Q83 974 137 1126T290 1388T540 1558T874 1619Q1128 1619 1305 1516T1568 1229T1655 791Q1655 696 1633 611T1567 453T1446 338T1270
295Q1189 295 1116 324T993 412Q944 347 903 321T817 295Q707 295 627 358T509 514T472 716Q472 781 480 847T511 985T568 1113T661 1204T793 1240Q881 1240 923 1177V1231H1210V642Q1210 640 1210 636Q1210 619 1210 610T1213 584T1221 560T1238 544T1265 537Q1298
537 1321 566T1353 643T1365 724T1368 791Q1368 931 1345 1035T1268 1224T1115 1353T874 1397Q745 1397 646 1349T488 1216T400 1024T370 791Q370 660 385 558T440 367T543 219T706 127T937 94Q1064 94 1245 152ZM923 565V969Q921 985 910 996T883 1008Q853 1008
830 996T794 958T773 910T763 850T760 792T759 737Q759 722 759 716Q759 686 763 659T776 602T808 555T862 537Q896 537 923 565Z" />
<glyph unicode="A" horiz-adv-x="1117" d="M465 609H651L560 1277L465 609ZM9 0L398 1800H720L1108 0H749L675 385H440L370 0H9Z" />
<glyph unicode="B" horiz-adv-x="1140" d="M471 257H505Q576 257 620 273T687 330T717 420T725 556Q725 697 676 775T507 853H471V257ZM469 1092H531Q581 1092 615 1111T666 1166T691 1245T698 1344Q698 1389 692 1423T677 1479T650 1517T617 1540T573 1551T525
1555T469 1556V1092ZM107 0V1800H478Q578 1800 654 1790T804 1749T925 1667T1001 1533T1030 1335Q1030 1194 964 1113T757 985Q1078 907 1078 531Q1078 260 948 130T551 0H107Z" />
<glyph unicode="C" horiz-adv-x="1174" d="M84 601V1197Q84 1835 606 1835Q716 1835 801 1806T945 1724T1040 1596T1094 1431T1111 1235V1080H753V1246Q753 1295 751 1330T741 1411T718 1485T675 1534T606 1554Q448 1554 448 1288V511Q448 246 606 246Q653 246
685 273T731 349T750 446T755 555V740H1111V588Q1109 485 1094 398T1043 229T952 91T808 0T606 -35Q489 -35 399 -2T250 88T153 227T100 401T84 601Z" />
<glyph unicode="D" horiz-adv-x="1164" d="M107 0V1800H483Q663 1800 779 1768T962 1661T1054 1482T1080 1217V627Q1080 531 1074 460T1052 320T1007 204T933 115T825 50T676 13T479 0H107ZM485 255Q537 255 567 256T627 264T671 280T697 311T712 358T716 427V1396Q716
1485 663 1514T485 1544V255Z" />
<glyph unicode="E" horiz-adv-x="881" d="M107 0V1800H858V1550H471V1060H745V804H471V250H858V0H107Z" />
<glyph unicode="F" horiz-adv-x="856" d="M107 0V1800H858V1550H471V1060H745V804H471V0H107Z" />
<glyph unicode="G" horiz-adv-x="1238" d="M84 563V1197Q84 1835 615 1835Q727 1835 814 1806T961 1724T1058 1596T1113 1431T1130 1235V1129H782V1255Q782 1302 780 1337T767 1416T740 1488T691 1535T615 1554Q448 1554 448 1288V511Q448 246 615 246Q781 246
781 521V665H575V926H1145V0H895L849 126Q803 54 718 10T543 -35Q446 -35 367 0T236 94T149 232T99 393T84 563Z" />
<glyph unicode="H" horiz-adv-x="1205" d="M107 0V1800H471V1062H732V1800H1098V0H732V803H471V0H107Z" />
<glyph unicode="I" horiz-adv-x="578" d="M107 0V1800H471V0H107Z" />
<glyph unicode="J" horiz-adv-x="691" d="M0 -34V222Q132 220 176 261T220 435V1800H584V432Q584 333 575 264T539 135T468 40T352 -14T179 -34H0Z" />
<glyph unicode="K" horiz-adv-x="1149" d="M107 0V1800H471V1117L753 1800H1160L793 1063L1187 0H809L537 823L471 653V0H107Z" />
<glyph unicode="L" horiz-adv-x="838" d="M107 0V1800H471V250H829V0H107Z" />
<glyph unicode="M" horiz-adv-x="1470" d="M107 0V1800H543L735 600L942 1800H1363V0H1095L1087 1266Q1057 1071 982 633T877 0H605L384 1274L376 0H107Z" />
<glyph unicode="N" horiz-adv-x="1173" d="M107 0V1801H369L764 859V1801H1066V0H814L420 999V0H107Z" />
<glyph unicode="O" horiz-adv-x="1221" d="M84 592V1197Q84 1835 610 1835Q1137 1835 1137 1197V601Q1137 493 1121 402T1067 228T969 89T818 -2T610 -35Q494 -35 403 -3T253 85T156 221T101 393T84 592ZM773 510V1288Q773 1554 610 1554Q561 1554 527 1530T477
1463T455 1379T448 1288V510Q448 245 610 245Q773 245 773 510Z" />
<glyph unicode="P" horiz-adv-x="1022" d="M474 1027Q503 1027 525 1030T565 1038T595 1055T616 1076T631 1105T640 1139T644 1181T646 1227T646 1282Q646 1292 646 1297Q646 1336 646 1356T642 1407T633 1453T614 1489T583 1518T538 1534T474 1541V1027ZM107
0V1800H542Q777 1800 884 1669T991 1290Q991 1168 968 1078T902 930T794 836T651 786T473 770V0H107Z" />
<glyph unicode="Q" horiz-adv-x="1228" d="M780 511V1288Q780 1337 774 1379T750 1463T699 1529T614 1554Q565 1554 530 1530T479 1463T455 1379T448 1288V511Q448 246 614 246T780 511ZM84 592V1197Q84 1308 100 1401T155 1576T254 1714T405 1802T614 1835T822
1803T974 1714T1072 1576T1127 1401T1144 1197V601Q1144 231 931 52Q961 -13 1107 -13V-234Q835 -234 707 -32Q664 -37 608 -37Q474 -37 372 9T208 141T115 339T84 592Z" />
<glyph unicode="R" horiz-adv-x="1122" d="M471 1051H575Q617 1051 647 1079T690 1150T709 1229T715 1297T711 1363T695 1438T657 1506T592 1533H471V1051ZM107 0V1800H503Q638 1800 740 1775T920 1695T1037 1548T1077 1326Q1077 1270 1073 1226T1055 1126T1015
1026T943 940T832 870Q994 356 1114 0H737L531 829H471V0H107Z" />
<glyph unicode="S" horiz-adv-x="1053" d="M45 515L414 586Q414 531 416 489T426 398T449 317T490 264T553 242Q661 242 661 380Q661 569 448 756L335 852Q281 897 249 927T174 1008T106 1106T64 1221T46 1363Q46 1582 185 1709T554 1837Q745 1837 879 1701T1013
1373L1012 1360Q1012 1347 1012 1330L636 1278Q636 1289 637 1312T639 1351Q639 1387 634 1420T618 1486T582 1538T524 1558Q464 1558 434 1511T404 1400Q404 1344 421 1295T474 1204T540 1133T620 1065T691 1005Q768 937 821 878T921 743T991 581T1015 393Q1015
204 880 84T552 -37Q427 -37 330 9T174 134T82 309T45 515Z" />
<glyph unicode="T" horiz-adv-x="915" d="M278 0V1528H14V1800H901V1528H642V0H278Z" />
<glyph unicode="U" horiz-adv-x="1248" d="M99 669V1800H463V680Q463 584 464 541T469 435T483 347T510 293T556 255T624 246T692 255T737 292T765 346T779 432T784 536T785 674Q785 678 785 680V1800H1149V669Q1149 583 1144 513T1125 368T1087 236T1023 126T929
39T797 -15T624 -35T451 -15T320 39T226 125T162 235T124 368T104 513T99 669Z" />
<glyph unicode="V" horiz-adv-x="1044" d="M343 0L12 1800H357L516 709L692 1800H1032L676 0H343Z" />
<glyph unicode="W" horiz-adv-x="1464" d="M270 0L21 1800H331L443 608L597 1800H864L1015 615L1132 1800H1443L1191 0H880L729 1178L581 0H270Z" />
<glyph unicode="X" horiz-adv-x="1077" d="M23 0L314 931L21 1800H367L536 1262L718 1800H1056L765 937L1052 0H709L537 595L367 0H23Z" />
<glyph unicode="Y" horiz-adv-x="1027" d="M337 0V595L-1 1800H342L510 1009Q541 1139 603 1404T695 1800H1028L689 595V0H337Z" />
<glyph unicode="Z" horiz-adv-x="998" d="M80 0V228L555 1549H135V1799H911V1570L434 250H911V0H80Z" />
<glyph unicode="[" horiz-adv-x="779" d="M156 -64V1907H703V1749H444V94H703V-64H156Z" />
<glyph unicode="\" horiz-adv-x="629" d="M265 0L68 1843H356L554 0H265Z" />
<glyph unicode="]" horiz-adv-x="728" d="M76 -64V64H332V1728H76V1856H588V-64H76Z" />
<glyph unicode="^" horiz-adv-x="962" d="M65 907L336 1583H613L884 907H594L474 1325L355 907H65Z" />
<glyph unicode="_" horiz-adv-x="829" d="M6 0V223H812V0H6Z" />
<glyph unicode="`" horiz-adv-x="640" d="M353 1393L76 1835H422L558 1393H353Z" />
<glyph unicode="a" horiz-adv-x="976" d="M552 295V616Q386 482 386 322Q386 282 401 254T454 225Q475 225 495 238T525 262T552 295ZM620 0L587 135Q558 44 492 8T328 -29Q256 -29 202 -1T118 74T73 176T58 291Q58 359 72 417T107 519T167 605T242 674T336 733T438
784T551 833V943Q551 1012 534 1046T476 1080Q448 1080 431 1069T406 1034T397 993T395 943V869H68Q68 1094 181 1214T509 1335Q659 1335 772 1226T885 967V347Q885 186 928 0H620Z" />
<glyph unicode="b" horiz-adv-x="999" d="M95 0V1800H432V1217Q473 1270 529 1302T649 1335Q764 1335 842 1240T920 1021V250Q920 138 845 55T659 -29Q592 -29 532 5T432 98V0H95ZM583 319V994Q583 1080 527 1080Q509 1080 488 1063T458 1036T432 1002V306L438
298Q443 290 445 288T453 278T462 267T471 256T481 246T492 238T503 231T515 227T527 225Q551 225 564 241T580 274T583 319Z" />
<glyph unicode="c" horiz-adv-x="928" d="M78 334V894Q78 1102 177 1218T479 1335Q683 1335 781 1219T880 894V780H549V929Q549 1007 536 1043T479 1080Q415 1080 415 981V335Q415 225 479 225Q503 225 517 235T538 269T547 318T549 390V529H880V334Q880 226 824
142T677 14T479 -29Q314 -29 196 71T78 334Z" />
<glyph unicode="d" horiz-adv-x="999" d="M79 250V1021Q79 1145 157 1240T350 1335Q413 1335 469 1303T567 1217V1800H904V0H567V98Q527 39 467 5T340 -29Q229 -29 154 54T79 250ZM567 297V1005Q510 1080 472 1080Q416 1080 416 994V319Q416 292 418 275T434 241T472
225Q515 225 567 297Z" />
<glyph unicode="e" horiz-adv-x="940" d="M415 801H546V981Q546 1080 479 1080Q415 1080 415 981V801ZM78 339V894Q78 1102 177 1218T479 1335Q683 1335 781 1219T880 894V624H415V335Q415 225 479 225Q549 225 549 343V486H880V339Q880 176 762 74T479 -29T196
74T78 339Z" />
<glyph unicode="f" horiz-adv-x="647" d="M141 0V1080H65V1305H141V1307Q142 1367 146 1413T160 1511T191 1600T243 1670T322 1718T432 1735Q474 1735 527 1732T612 1724L644 1721V1469Q575 1475 556 1475Q514 1475 496 1452T478 1366V1305H641V1080H478V0H141Z" />
<glyph unicode="g" horiz-adv-x="965" d="M358 79H334Q289 8 289 -46Q289 -105 511 -105Q513 -105 517 -105Q631 -106 631 -37Q631 -13 618 6T580 38T529 58T468 70T411 76T358 79ZM462 632Q544 632 544 864Q544 1102 467 1102Q448 1102 434 1092T411 1062T397
1020T389 966T386 910T385 851Q385 632 462 632ZM328 339Q328 315 362 299T452 273T573 251T707 223T829 180T918 110T953 5Q953 -78 929 -140T864 -240T763 -301T641 -332T503 -341Q22 -341 22 -106Q22 -37 60 31T159 144Q118 165 80 193T42 248Q42 305 175 474Q73
660 73 848Q73 944 95 1028T164 1183T288 1294T470 1335Q624 1335 702 1252Q775 1335 947 1335H989L961 1094Q862 1094 818 1050Q860 975 860 823Q860 734 834 654T758 512T631 414T459 378Q441 378 414 382T369 390L351 393Q328 348 328 339Z" />
<glyph unicode="h" horiz-adv-x="1005" d="M94 0V1800H431V1212Q480 1267 547 1301T687 1335Q756 1335 810 1291T891 1183T918 1051V0H581V963Q581 967 581 980T582 1002T581 1024T577 1046T569 1063T556 1076T535 1080Q515 1080 492 1064T459 1037T431 1005V0H94Z" />
<glyph unicode="i" horiz-adv-x="529" d="M96 1419V1734H433V1419H96ZM96 0V1305H433V0H96Z" />
<glyph unicode="j" horiz-adv-x="572" d="M143 1419V1734H478V1419H143ZM-21 -284V-40Q35 -56 67 -56Q143 -56 143 55V1305H478V26Q478 -131 396 -221T158 -311Q83 -311 -21 -284Z" />
<glyph unicode="k" horiz-adv-x="981" d="M99 0V1800H436V852L642 1305H1003L682 754L1002 0H653L481 582L436 506V0H99Z" />
<glyph unicode="l" horiz-adv-x="529" d="M96 0V1800H433V0H96Z" />
<glyph unicode="m" horiz-adv-x="1473" d="M94 0V1305H431V1212Q478 1267 543 1301T677 1335Q742 1335 797 1293T880 1188Q929 1254 1000 1294T1152 1335Q1221 1335 1276 1291T1358 1183T1386 1051V0H1049V984Q1049 1002 1048 1013T1043 1043T1028 1070T1000 1080Q964
1080 908 1006V0H571V986Q571 1080 525 1080Q487 1080 430 1005V0H94Z" />
<glyph unicode="n" horiz-adv-x="1005" d="M94 0V1305H431V1213Q479 1268 546 1301T687 1334Q756 1334 810 1291T891 1184T918 1052V0H581V993Q581 1080 525 1080Q519 1080 513 1079T500 1074T488 1068T476 1059T466 1050T455 1040T446 1030T438 1020L431 1012V0H94Z" />
<glyph unicode="o" horiz-adv-x="973" d="M561 335V981Q561 1080 484 1080Q415 1080 415 981V335Q415 313 416 299T424 265T445 235T484 225Q561 225 561 335ZM78 339V894Q78 1103 176 1218T484 1334T794 1219T895 894V339Q895 176 774 74T484 -29Q375 -29 283
15T135 145T78 339Z" />
<glyph unicode="p" horiz-adv-x="999" d="M95 -371V1305H432V1217Q473 1270 529 1302T649 1335Q764 1335 842 1240T920 1021V250Q920 138 845 55T659 -29Q592 -29 532 5T432 98V-371H95ZM583 319V994Q583 1080 527 1080Q489 1080 432 1005V297Q484 225 527 225Q551
225 564 241T580 274T583 319Z" />
<glyph unicode="q" horiz-adv-x="979" d="M548 -371V89Q509 36 455 4T341 -29Q231 -29 157 57T82 255V1056Q82 1168 156 1251T341 1335Q402 1335 456 1301T548 1208V1305H885V-371H548ZM548 301V1009Q533 1030 526 1039T499 1064T463 1080Q443 1080 432 1066T419
1036T417 996V309Q417 225 463 225Q475 225 487 232T513 254T531 277T548 301Z" />
<glyph unicode="r" horiz-adv-x="714" d="M94 0V1305H429V1199Q506 1324 609 1324Q638 1324 700 1314V1030Q607 1040 569 1040Q500 1040 465 998T429 876V0H94Z" />
<glyph unicode="s" horiz-adv-x="867" d="M38 315L296 407Q306 377 312 361T332 313T360 264T395 233T441 218Q504 218 504 292Q504 319 492 347T466 396T419 450T367 499T304 553L249 600Q142 693 81 783T20 983Q20 1068 55 1136T151 1247T285 1311T442 1334Q515
1334 582 1303T699 1221T787 1105T844 969L602 886Q590 916 582 935T557 986T523 1037T482 1070T432 1085Q397 1085 378 1060T358 1003Q358 959 406 905T540 779L602 724Q652 679 688 640T761 550T817 445T837 335Q837 177 726 74T456 -29Q303 -29 192 66T38 315Z"
/>
<glyph unicode="t" horiz-adv-x="668" d="M117 448V1080H21V1305H117V1734H454V1305H616V1080H454V367Q454 313 474 287T545 260Q603 260 643 266V5Q577 -15 430 -15Q371 -15 324 -1T244 36T188 96T151 169T130 257T120 350T117 448Z" />
<glyph unicode="u" horiz-adv-x="1006" d="M87 253V1305H424V335Q424 225 470 225Q515 225 575 299V1305H912V0H575V113Q524 51 456 11T318 -29Q215 -29 151 58T87 253Z" />
<glyph unicode="v" horiz-adv-x="892" d="M282 0L11 1305H327L456 424L565 1305H881L623 0H282Z" />
<glyph unicode="w" horiz-adv-x="1273" d="M218 0L27 1305H308L412 500L520 1305H774L872 484L986 1305H1246L1053 0H763L640 771L508 0H218Z" />
<glyph unicode="x" horiz-adv-x="922" d="M34 0L274 688L33 1305H366L461 896Q474 953 506 1091T556 1305H889L650 688L888 0H556L460 410L366 0H34Z" />
<glyph unicode="y" horiz-adv-x="872" d="M270 117Q270 248 217 498T94 1013T18 1305H325L446 577L552 1305H861L576 -35Q561 -103 530 -153T460 -233T365 -281T255 -305T130 -311H87V-78Q187 -76 228 -31T270 117Z" />
<glyph unicode="z" horiz-adv-x="813" d="M57 0V228L416 1062H113V1305H764V1082L402 244H764V0H57Z" />
<glyph unicode="{" horiz-adv-x="762" d="M682 158V-64Q563 -64 477 -37T338 39T254 164T211 328T200 532Q200 547 200 577T201 623T200 664T194 702T180 733T156 758T120 772T70 778V1065Q102 1065 126 1077T164 1116T186 1167T198 1231T201 1293T201 1353T200
1399Q200 1558 223 1655T305 1809T452 1887T682 1907V1685Q624 1685 588 1674T530 1648T500 1591T489 1513T487 1399Q487 1337 480 1277T456 1147T401 1022T310 934Q361 905 396 862T448 764T474 661T485 546Q486 523 487 481T490 417T495 358T504 302T519 255T542
214T575 185T621 164T682 158Z" />
<glyph unicode="|" horiz-adv-x="429" d="M134 -130V1972H356V-130H134Z" />
<glyph unicode="}" horiz-adv-x="762" d="M70 -64V158Q100 158 124 164T167 178T200 204T224 235T241 275T252 320T258 371T262 424T265 482Q265 490 265 494T265 506T266 520Q268 575 272 614T287 703T317 790T366 862T442 922Q390 955 353 1018T298 1159T273
1303T265 1439Q265 1474 265 1491T264 1535T260 1574T252 1605T240 1632T223 1651T198 1667T165 1677T123 1683T70 1685V1907Q184 1907 260 1895T396 1854T488 1770T537 1637T553 1439Q553 1431 552 1389T551 1321T555 1252T566 1180T588 1123T626 1080T682 1065V778Q654
778 633 773T597 759T574 733T560 703T553 664T551 624T552 578T553 532Q553 413 542 327T500 164T415 39T276 -36T70 -64Z" />
<glyph unicode="~" horiz-adv-x="1028" d="M139 842Q138 926 161 992T239 1103T373 1147Q419 1147 475 1126T581 1082T658 1060Q695 1060 695 1129H876Q877 1046 854 979T776 867T642 822Q595 822 536 844T428 888T355 910Q321 910 321 842H139Z" />
<glyph unicode="&#xa1;" horiz-adv-x="524" d="M438 1305V987H115V1305H438ZM334 842L438 -496H95L218 842H334Z" />
<glyph unicode="&#xa2;" horiz-adv-x="965" d="M447 -263V32Q295 45 191 146T87 399V844Q87 1041 175 1155T447 1281V1568H537V1281Q716 1267 802 1154T889 844V788H557L558 862Q559 938 546 975T488 1013Q424 1013 424 914V406Q424 296 488 296Q529 296 544 326T559
421Q559 426 559 435T558 468T557 526H889V399Q889 249 788 149T537 32V-263H447Z" />
<glyph unicode="&#xa3;" horiz-adv-x="1137" d="M84 0V186L205 245V725H84V984H205V1206Q205 1276 208 1334T223 1458T254 1577T307 1679T385 1761T495 1814T641 1834Q717 1834 777 1818T879 1775T951 1706T997 1622T1023 1522T1036 1416T1039 1305H712Q712 1552
641 1552T570 1204V984H815V725H570V284H1029V0H84Z" />
<glyph unicode="&#xa4;" horiz-adv-x="1054" d="M335 897Q335 809 387 746T527 682Q621 682 670 745T719 896Q719 985 671 1047T527 1110T384 1048T335 897ZM120 579L206 665Q143 762 143 897Q143 1030 206 1127L120 1213L210 1303L296 1217Q391 1280 527 1280T758
1217L844 1303L934 1213L847 1126Q911 1029 911 897Q911 764 847 665L934 579L844 489L758 575Q663 512 527 512T296 575L210 489L120 579Z" />
<glyph unicode="&#xa5;" horiz-adv-x="1095" d="M397 0V259H202V458H397V560H202V756H348Q301 928 202 1291T51 1843H346L540 942L733 1843H1027L728 756H878V560H684V458H878V259H684V0H397Z" />
<glyph unicode="&#xa6;" horiz-adv-x="441" d="M98 900V1565H332V900H98ZM98 -15V650H332V-15H98Z" />
<glyph unicode="&#xa7;" horiz-adv-x="1028" d="M541 795Q623 839 623 907Q623 958 517 1049L474 1084Q439 1062 416 1026T393 951Q393 922 410 897T444 858T496 824T541 795ZM623 339Q623 387 605 427T557 496T489 550T407 599T321 645T239 698T170 762T122 844T104
951Q104 1051 148 1131T278 1257Q104 1368 104 1504Q104 1592 135 1661T222 1773T349 1838T508 1861Q669 1861 772 1760T914 1496L694 1423Q619 1619 508 1619Q454 1619 424 1589T393 1504Q393 1469 414 1441T458 1398T523 1364T579 1334Q648 1292 701 1252T804
1158T882 1040T910 907Q910 712 761 617Q910 488 910 339Q910 166 798 74T508 -18Q346 -18 245 82T101 348L322 421Q334 387 350 357T388 294T442 243T508 224Q562 224 592 254T623 339Z" />
<glyph unicode="&#xa8;" horiz-adv-x="927" d="M569 1492V1800H873V1492H569ZM116 1492V1800H419V1492H116Z" />
<glyph unicode="&#xa9;" horiz-adv-x="1619" d="M799 -15Q651 -15 518 44T289 204T139 439T83 723Q83 870 138 1006T289 1242T517 1401T799 1461Q997 1461 1162 1360T1422 1090T1516 723Q1516 527 1422 358T1163 87T799 -15ZM799 163Q909 163 1006 209T1169 333T1274
511T1313 719T1275 927T1170 1105T1006 1228T799 1275Q653 1275 534 1196T349 991T284 719T349 448T533 242T799 163ZM896 614H1106Q1106 435 1032 327T803 219Q753 219 712 229T641 254T587 297T548 349T521 414T505 483T496 560T493 637T492 716Q492 769 492
799T496 878T504 957T521 1027T547 1093T587 1145T643 1188T716 1213T810 1223Q893 1223 953 1194T1046 1111T1093 994T1108 851H894Q894 878 894 894T889 943T877 995T853 1031T812 1048Q745 1048 716 980T687 730Q687 588 701 514T739 419T803 398Q820 398 834
404T858 423T875 448T885 482T891 516T895 553T896 585T896 614Z" />
<glyph unicode="&#xaa;" horiz-adv-x="906" d="M536 239V403Q507 386 498 381T460 356T418 322T393 287T380 244Q380 213 394 193T438 173T495 192T536 239ZM554 0V85Q522 41 471 15T364 -11Q279 -11 217 51T155 198Q155 255 179 302T232 377T321 434T413 475T515
508Q529 513 536 515V601Q536 726 473 726Q396 726 396 574H188Q190 713 265 807T477 901Q557 901 614 874T702 802T749 692T768 560T769 413T764 264T763 122T778 0H554Z" />
<glyph unicode="&#xab;" horiz-adv-x="1054" d="M975 64L527 576V704L975 1216V896L719 641L975 384V64ZM527 64L79 576V704L527 1216V896L271 641L527 384V64Z" />
<glyph unicode="&#xac;" horiz-adv-x="829" d="M136 453V676H683V259H525V453H136Z" />
<glyph unicode="&#xad;" horiz-adv-x="804" d="M142 433V688H683V433H142Z" />
<glyph unicode="&#xae;" horiz-adv-x="1619" d="M720 766Q812 766 850 799T888 922Q888 1062 777 1062H720V766ZM534 251V1197Q419 1122 352 994T284 719Q284 574 349 448T533 242T799 163Q953 163 1078 251H907L778 641H720V251H534ZM799 -15Q651 -15 518 44T289
204T139 439T83 723Q83 870 138 1006T289 1242T517 1401T799 1461Q997 1461 1162 1360T1422 1090T1516 723Q1516 527 1422 358T1163 87T799 -15ZM1101 269Q1200 347 1256 466T1313 719Q1313 826 1275 927T1170 1105T1006 1228T799 1275Q669 1275 556 1210H791Q1078
1210 1078 918Q1078 758 952 682Q961 635 980 576T1015 477T1060 366T1101 269Z" />
<glyph unicode="&#xaf;" horiz-adv-x="429" d="M-36 1457V1650H471V1457H-36Z" />
<glyph unicode="&#xb0;" horiz-adv-x="1095" d="M540 1255Q625 1255 672 1313T720 1458Q720 1545 673 1602T540 1660Q455 1660 408 1603T360 1459T408 1314T540 1255ZM540 1055Q355 1055 247 1165T138 1459Q138 1644 247 1752T540 1861Q725 1861 834 1752T944
1459Q944 1274 835 1165T540 1055Z" />
<glyph unicode="&#xb1;" horiz-adv-x="895" d="M330 389V583H137V806H330V1000H554V806H747V583H554V389H330ZM137 0V223H747V0H137Z" />
<glyph unicode="&#xb2;" horiz-adv-x="696" d="M617 1245Q617 1201 594 1146T530 1030T453 923T369 818T307 742H617V583H70V731Q72 733 136 811T250 955T347 1106T394 1245Q394 1247 394 1258T394 1275T394 1291T392 1308T388 1323T382 1338T373 1349T361 1357T344
1360T327 1357T314 1348T305 1336T299 1319T296 1301T294 1281T293 1263T293 1246T293 1231H70Q70 1363 141 1440T344 1518Q472 1518 544 1446T617 1245Z" />
<glyph unicode="&#xb3;" horiz-adv-x="829" d="M136 935H358Q358 933 358 921T358 903T358 885T360 865T364 847T370 830T379 818T392 809T409 806Q427 806 438 816T454 845T459 878T460 912Q460 918 460 921Q460 990 432 1013T330 1037V1195Q404 1195 432 1218T460
1310Q460 1313 460 1319Q460 1341 459 1354T454 1386T439 1416T409 1426Q400 1426 393 1423T380 1414T371 1401T365 1384T361 1366T359 1346T358 1328T358 1310T358 1296H136Q136 1428 206 1505T409 1583Q538 1583 610 1511T683 1310Q683 1168 551 1115Q683 1061
683 921Q683 793 611 721T409 648Q277 648 207 725T136 935Z" />
<glyph unicode="&#xb4;" horiz-adv-x="638" d="M113 1393L249 1835H594L317 1393H113Z" />
<glyph unicode="&#xb6;" horiz-adv-x="1020" d="M394 0V887Q232 891 128 983T23 1233Q23 1328 56 1397T149 1506T283 1564T450 1583H943V0H734V887H621V0H394Z" />
<glyph unicode="&#xb7;" horiz-adv-x="520" d="M99 679V994H422V679H99Z" />
<glyph unicode="&#xb8;" horiz-adv-x="585" d="M132 -561V-400Q135 -400 153 -400T189 -401T231 -401T276 -397T314 -390T342 -378T353 -358Q353 -348 349 -339T337 -321T320 -305T298 -290T275 -277T250 -266T227 -256T205 -248T188 -242V0H359V-129Q580 -233
580 -362Q580 -403 562 -435T516 -488T446 -523T367 -545T280 -556T201 -560T132 -561Z" />
<glyph unicode="&#xb9;" horiz-adv-x="562" d="M198 648V1231H69V1384Q244 1472 335 1583H421V648H198Z" />
<glyph unicode="&#xba;" horiz-adv-x="965" d="M594 471V710Q594 717 594 743T595 781T593 817T589 855T580 889T566 920T546 942T517 959T478 964Q449 964 427 954T393 923T373 882T362 830T359 779T358 727Q358 723 358 721T358 716T358 710V471Q358 466 358
454Q358 426 358 411T360 367T366 321T379 281T400 247T433 225T478 216Q499 216 516 221T545 237T566 260T580 291T588 325T593 363T594 400T595 438T594 471ZM114 430V752Q114 854 131 931T190 1070T304 1164T483 1196Q581 1196 654 1161T769 1064T832 924T852
752V430Q852 335 832 257T770 116T655 20T483 -15Q378 -15 305 17T190 111T132 250T114 430Z" />
<glyph unicode="&#xbb;" horiz-adv-x="1054" d="M79 64V384L335 641L79 896V1216L527 704V576L79 64ZM527 64V384L783 641L527 896V1216L975 704V576L527 64Z" />
<glyph unicode="&#xbc;" horiz-adv-x="1695" d="M1167 402H1260V586L1167 402ZM936 244V392L1287 985H1482V402H1612V244H1482V-15H1260V244H936ZM424 0L1001 1835H1181L603 0H424ZM198 648V1231H69V1384Q244 1472 335 1583H421V648H198Z" />
<glyph unicode="&#xbd;" horiz-adv-x="1694" d="M1615 647Q1615 603 1592 548T1528 432T1451 325T1367 220T1305 144H1615V-15H1068V133Q1070 135 1134 213T1248 357T1345 508T1392 647Q1392 649 1392 660T1392 677T1392 693T1390 710T1386 725T1380 740T1371
751T1359 759T1342 762T1325 759T1312 750T1303 738T1297 721T1294 703T1292 683T1291 665T1291 648T1291 633H1068Q1068 765 1139 842T1342 920Q1470 920 1542 848T1615 647ZM424 0L1001 1835H1181L603 0H424ZM198 648V1231H69V1384Q244 1472 335 1583H421V648H198Z"
/>
<glyph unicode="&#xbe;" horiz-adv-x="1895" d="M587 0L1164 1835H1344L766 0H587ZM1300 402H1393V586L1300 402ZM1069 244V392L1420 985H1615V402H1745V244H1615V-15H1393V244H1069ZM136 935H358Q358 933 358 921T358 903T358 885T360 865T364 847T370 830T379
818T392 809T409 806Q427 806 438 816T454 845T459 878T460 912Q460 918 460 921Q460 990 432 1013T330 1037V1195Q404 1195 432 1218T460 1310Q460 1313 460 1319Q460 1341 459 1354T454 1386T439 1416T409 1426Q400 1426 393 1423T380 1414T371 1401T365 1384T361
1366T359 1346T358 1328T358 1310T358 1296H136Q136 1428 206 1505T409 1583Q538 1583 610 1511T683 1310Q683 1168 551 1115Q683 1061 683 921Q683 793 611 721T409 648Q277 648 207 725T136 935Z" />
<glyph unicode="&#xbf;" horiz-adv-x="1182" d="M825 1305V981H491V1305H825ZM825 825V437Q759 392 700 336T588 211T506 63T475 -97Q475 -166 507 -201T601 -236Q657 -236 685 -191T714 -77Q714 -15 695 47L1009 107Q1038 -4 1038 -103Q1038 -295 929 -412T601
-530Q380 -530 259 -413T138 -77Q138 117 231 283T491 545V825H825Z" />
<glyph unicode="&#xc0;" horiz-adv-x="1135" d="M465 609H651L560 1277L465 609ZM9 0L398 1800H720L1108 0H749L675 385H440L370 0H9ZM465 1937L188 2379H534L670 1937H465Z" />
<glyph unicode="&#xc1;" horiz-adv-x="1135" d="M465 609H651L560 1277L465 609ZM9 0L398 1800H720L1108 0H749L675 385H440L370 0H9ZM465 1937L601 2379H946L669 1937H465Z" />
<glyph unicode="&#xc2;" horiz-adv-x="1135" d="M465 609H651L560 1277L465 609ZM9 0L398 1800H720L1108 0H749L675 385H440L370 0H9ZM219 1937L420 2343H710L916 1937H641L566 2139L493 1937H219Z" />
<glyph unicode="&#xc3;" horiz-adv-x="1135" d="M465 609H651L560 1277L465 609ZM9 0L398 1800H720L1108 0H749L675 385H440L370 0H9ZM396 1948H229Q229 1999 232 2038T248 2118T279 2186T333 2230T414 2247Q487 2247 589 2218T715 2189Q731 2189 739 2196T749
2211T750 2235H905Q905 1937 749 1937Q699 1937 596 1973T445 2010Q430 2010 420 2006T406 1997T399 1981T396 1966T396 1948Z" />
<glyph unicode="&#xc4;" horiz-adv-x="1135" d="M465 609H651L560 1277L465 609ZM9 0L398 1800H720L1108 0H749L675 385H440L370 0H9ZM642 1937V2245H946V1937H642ZM189 1937V2245H492V1937H189Z" />
<glyph unicode="&#xc5;" horiz-adv-x="1135" d="M465 609H651L560 1277L465 609ZM9 0L398 1800H720L1108 0H749L675 385H440L370 0H9ZM335 1979T335 2088T406 2262T588 2327T769 2262T841 2088T770 1914T588 1849T407 1914ZM588 1970Q627 1970 646 2007T666 2087T647
2168T588 2206Q548 2206 528 2169T507 2089Q507 2044 527 2007T588 1970Z" />
<glyph unicode="&#xc6;" horiz-adv-x="1609" d="M643 609H854V1183L643 609ZM44 0L817 1800H1578V1550H1191V1060H1465V804H1191V250H1578V0H854V385H570L428 0H44Z" />
<glyph unicode="&#xc7;" horiz-adv-x="1174" d="M84 601V1197Q84 1835 606 1835Q716 1835 801 1806T945 1724T1040 1596T1094 1431T1111 1235V1080H753V1246Q753 1295 751 1330T741 1411T718 1485T675 1534T606 1554Q448 1554 448 1288V511Q448 246 606 246Q653
246 685 273T731 349T750 446T755 555V740H1111V588Q1109 485 1094 398T1043 229T952 91T808 0T606 -35Q489 -35 399 -2T250 88T153 227T100 401T84 601ZM456 -577V-416Q459 -416 477 -416T513 -417T555 -417T600 -413T638 -406T666 -394T677 -374Q677 -364 673
-355T661 -337T644 -321T622 -306T599 -293T574 -282T551 -272T529 -264T512 -258V-16H683V-145Q904 -249 904 -378Q904 -419 886 -451T840 -504T770 -539T691 -561T604 -572T525 -576T456 -577Z" />
<glyph unicode="&#xc8;" horiz-adv-x="889" d="M107 0V1800H858V1550H471V1060H745V804H471V250H858V0H107ZM380 1937L103 2379H449L585 1937H380Z" />
<glyph unicode="&#xc9;" horiz-adv-x="889" d="M107 0V1800H858V1550H471V1060H745V804H471V250H858V0H107ZM381 1937L517 2379H862L585 1937H381Z" />
<glyph unicode="&#xca;" horiz-adv-x="889" d="M107 0V1800H858V1550H471V1060H745V804H471V250H858V0H107ZM134 1937L335 2343H625L831 1937H556L481 2139L408 1937H134Z" />
<glyph unicode="&#xcb;" horiz-adv-x="889" d="M107 0V1800H858V1550H471V1060H745V804H471V250H858V0H107ZM557 1937V2245H861V1937H557ZM104 1937V2245H407V1937H104Z" />
<glyph unicode="&#xcc;" horiz-adv-x="578" d="M107 0V1800H471V0H107ZM187 1937L-90 2379H256L392 1937H187Z" />
<glyph unicode="&#xcd;" horiz-adv-x="578" d="M107 0V1800H471V0H107ZM187 1937L323 2379H668L391 1937H187Z" />
<glyph unicode="&#xce;" horiz-adv-x="578" d="M107 0V1800H471V0H107ZM-59 1937L142 2343H432L638 1937H363L288 2139L215 1937H-59Z" />
<glyph unicode="&#xcf;" horiz-adv-x="578" d="M107 0V1800H471V0H107ZM363 1937V2245H667V1937H363ZM-90 1937V2245H213V1937H-90Z" />
<glyph unicode="&#xd0;" horiz-adv-x="1156" d="M461 255H476Q526 255 556 257T615 265T659 281T686 312T702 359T706 427V1396Q706 1486 653 1514T472 1544H461V1012H585V829H461V255ZM97 0V829H5V1012H97V1800H473Q653 1800 769 1768T952 1661T1044 1482T1070
1217V627Q1070 531 1064 460T1042 320T997 204T923 115T815 50T666 13T469 0H97Z" />
<glyph unicode="&#xd1;" horiz-adv-x="1173" d="M107 0V1801H369L764 859V1801H1066V0H814L420 999V0H107ZM416 1948H249Q249 1999 252 2038T268 2118T299 2186T353 2230T434 2247Q507 2247 609 2218T735 2189Q751 2189 759 2196T769 2211T770 2235H925Q925 1937
769 1937Q719 1937 616 1973T465 2010Q450 2010 440 2006T426 1997T419 1981T416 1966T416 1948Z" />
<glyph unicode="&#xd2;" horiz-adv-x="1221" d="M84 592V1197Q84 1835 610 1835Q1137 1835 1137 1197V601Q1137 493 1121 402T1067 228T969 89T818 -2T610 -35Q494 -35 403 -3T253 85T156 221T101 393T84 592ZM773 510V1288Q773 1554 610 1554Q561 1554 527 1530T477
1463T455 1379T448 1288V510Q448 245 610 245Q773 245 773 510ZM508 1937L231 2379H577L713 1937H508Z" />
<glyph unicode="&#xd3;" horiz-adv-x="1221" d="M84 592V1197Q84 1835 610 1835Q1137 1835 1137 1197V601Q1137 493 1121 402T1067 228T969 89T818 -2T610 -35Q494 -35 403 -3T253 85T156 221T101 393T84 592ZM773 510V1288Q773 1554 610 1554Q561 1554 527 1530T477
1463T455 1379T448 1288V510Q448 245 610 245Q773 245 773 510ZM509 1937L645 2379H990L713 1937H509Z" />
<glyph unicode="&#xd4;" horiz-adv-x="1221" d="M84 592V1197Q84 1835 610 1835Q1137 1835 1137 1197V601Q1137 493 1121 402T1067 228T969 89T818 -2T610 -35Q494 -35 403 -3T253 85T156 221T101 393T84 592ZM773 510V1288Q773 1554 610 1554Q561 1554 527 1530T477
1463T455 1379T448 1288V510Q448 245 610 245Q773 245 773 510ZM262 1937L463 2343H753L959 1937H684L609 2139L536 1937H262Z" />
<glyph unicode="&#xd5;" horiz-adv-x="1221" d="M84 592V1197Q84 1835 610 1835Q1137 1835 1137 1197V601Q1137 493 1121 402T1067 228T969 89T818 -2T610 -35Q494 -35 403 -3T253 85T156 221T101 393T84 592ZM773 510V1288Q773 1554 610 1554Q561 1554 527 1530T477
1463T455 1379T448 1288V510Q448 245 610 245Q773 245 773 510ZM440 1948H273Q273 1999 276 2038T292 2118T323 2186T377 2230T458 2247Q531 2247 633 2218T759 2189Q775 2189 783 2196T793 2211T794 2235H949Q949 1937 793 1937Q743 1937 640 1973T489 2010Q474
2010 464 2006T450 1997T443 1981T440 1966T440 1948Z" />
<glyph unicode="&#xd6;" horiz-adv-x="1221" d="M84 592V1197Q84 1835 610 1835Q1137 1835 1137 1197V601Q1137 493 1121 402T1067 228T969 89T818 -2T610 -35Q494 -35 403 -3T253 85T156 221T101 393T84 592ZM773 510V1288Q773 1554 610 1554Q561 1554 527 1530T477
1463T455 1379T448 1288V510Q448 245 610 245Q773 245 773 510ZM685 1937V2245H989V1937H685ZM232 1937V2245H535V1937H232Z" />
<glyph unicode="&#xd7;" horiz-adv-x="829" d="M65 468L259 662L65 856L215 1007L409 812L604 1007L753 856L559 662Q688 531 753 468L604 318L409 513L215 318L65 468Z" />
<glyph unicode="&#xd8;" horiz-adv-x="1221" d="M773 501L772 1288Q772 1337 766 1378T743 1462T693 1529T610 1554T527 1530T477 1463T455 1379T448 1288V501Q448 236 611 236Q773 236 773 501ZM258 -250L334 27Q84 166 84 592V1197Q84 1835 610 1835Q729 1835
822 1801L895 2067L992 2047L912 1757Q1137 1610 1137 1197V601Q1137 493 1121 402T1067 228T969 89T818 -2T610 -35Q509 -35 425 -10L354 -270L258 -250Z" />
<glyph unicode="&#xd9;" horiz-adv-x="1248" d="M99 669V1800H463V680Q463 584 464 541T469 435T483 347T510 293T556 255T624 246T692 255T737 292T765 346T779 432T784 536T785 674Q785 678 785 680V1800H1149V669Q1149 583 1144 513T1125 368T1087 236T1023
126T929 39T797 -15T624 -35T451 -15T320 39T226 125T162 235T124 368T104 513T99 669ZM521 1937L244 2379H590L726 1937H521Z" />
<glyph unicode="&#xda;" horiz-adv-x="1248" d="M99 669V1800H463V680Q463 584 464 541T469 435T483 347T510 293T556 255T624 246T692 255T737 292T765 346T779 432T784 536T785 674Q785 678 785 680V1800H1149V669Q1149 583 1144 513T1125 368T1087 236T1023
126T929 39T797 -15T624 -35T451 -15T320 39T226 125T162 235T124 368T104 513T99 669ZM522 1937L658 2379H1003L726 1937H522Z" />
<glyph unicode="&#xdb;" horiz-adv-x="1248" d="M99 669V1800H463V680Q463 584 464 541T469 435T483 347T510 293T556 255T624 246T692 255T737 292T765 346T779 432T784 536T785 674Q785 678 785 680V1800H1149V669Q1149 583 1144 513T1125 368T1087 236T1023
126T929 39T797 -15T624 -35T451 -15T320 39T226 125T162 235T124 368T104 513T99 669ZM275 1937L476 2343H766L972 1937H697L622 2139L549 1937H275Z" />
<glyph unicode="&#xdc;" horiz-adv-x="1248" d="M99 669V1800H463V680Q463 584 464 541T469 435T483 347T510 293T556 255T624 246T692 255T737 292T765 346T779 432T784 536T785 674Q785 678 785 680V1800H1149V669Q1149 583 1144 513T1125 368T1087 236T1023
126T929 39T797 -15T624 -35T451 -15T320 39T226 125T162 235T124 368T104 513T99 669ZM699 1937V2245H1003V1937H699ZM246 1937V2245H549V1937H246Z" />
<glyph unicode="&#xdd;" horiz-adv-x="1035" d="M337 0V595L-1 1800H342L510 1009Q541 1139 603 1404T695 1800H1028L689 595V0H337ZM415 1937L551 2379H896L619 1937H415Z" />
<glyph unicode="&#xde;" horiz-adv-x="1020" d="M481 791Q504 791 523 793T557 801T583 813T602 832T616 854T626 883T632 915T635 955T636 998T636 1048Q636 1057 636 1061Q636 1095 636 1112T634 1158T628 1201T616 1236T598 1266T570 1286T532 1301T481 1305V791ZM97
0V1800H480V1564H532Q767 1564 874 1433T981 1054Q981 934 958 845T894 697T789 602T649 551T475 534V0H97Z" />
<glyph unicode="&#xdf;" horiz-adv-x="1193" d="M99 0V1358Q99 1436 116 1505T169 1635T259 1740T389 1809T560 1834Q788 1834 904 1707T1021 1349Q1021 1074 766 977Q839 957 899 920T1000 836T1069 732T1109 616T1122 495Q1122 226 976 96T528 -35V215Q603 215
650 233T723 294T757 392T766 535Q766 663 706 738T529 815V1068Q573 1068 606 1094T656 1164T681 1254T689 1349Q689 1381 688 1404T684 1458T674 1508T655 1547T625 1575T581 1585Q554 1585 534 1576T501 1549T481 1513T470 1465T466 1415T465 1363V0H99Z" />
<glyph unicode="&#xe0;" horiz-adv-x="976" d="M552 295V616Q386 482 386 322Q386 282 401 254T454 225Q475 225 495 238T525 262T552 295ZM620 0L587 135Q558 44 492 8T328 -29Q256 -29 202 -1T118 74T73 176T58 291Q58 359 72 417T107 519T167 605T242 674T336
733T438 784T551 833V943Q551 1012 534 1046T476 1080Q448 1080 431 1069T406 1034T397 993T395 943V869H68Q68 1094 181 1214T509 1335Q659 1335 772 1226T885 967V347Q885 186 928 0H620ZM391 1437L114 1879H460L596 1437H391Z" />
<glyph unicode="&#xe1;" horiz-adv-x="976" d="M552 295V616Q386 482 386 322Q386 282 401 254T454 225Q475 225 495 238T525 262T552 295ZM620 0L587 135Q558 44 492 8T328 -29Q256 -29 202 -1T118 74T73 176T58 291Q58 359 72 417T107 519T167 605T242 674T336
733T438 784T551 833V943Q551 1012 534 1046T476 1080Q448 1080 431 1069T406 1034T397 993T395 943V869H68Q68 1094 181 1214T509 1335Q659 1335 772 1226T885 967V347Q885 186 928 0H620ZM391 1437L527 1879H872L595 1437H391Z" />
<glyph unicode="&#xe2;" horiz-adv-x="976" d="M552 295V616Q386 482 386 322Q386 282 401 254T454 225Q475 225 495 238T525 262T552 295ZM620 0L587 135Q558 44 492 8T328 -29Q256 -29 202 -1T118 74T73 176T58 291Q58 359 72 417T107 519T167 605T242 674T336
733T438 784T551 833V943Q551 1012 534 1046T476 1080Q448 1080 431 1069T406 1034T397 993T395 943V869H68Q68 1094 181 1214T509 1335Q659 1335 772 1226T885 967V347Q885 186 928 0H620ZM145 1437L346 1843H636L842 1437H567L492 1639L419 1437H145Z" />
<glyph unicode="&#xe3;" horiz-adv-x="976" d="M552 295V616Q386 482 386 322Q386 282 401 254T454 225Q475 225 495 238T525 262T552 295ZM620 0L587 135Q558 44 492 8T328 -29Q256 -29 202 -1T118 74T73 176T58 291Q58 359 72 417T107 519T167 605T242 674T336
733T438 784T551 833V943Q551 1012 534 1046T476 1080Q448 1080 431 1069T406 1034T397 993T395 943V869H68Q68 1094 181 1214T509 1335Q659 1335 772 1226T885 967V347Q885 186 928 0H620ZM322 1448H155Q155 1499 158 1538T174 1618T205 1686T259 1730T340 1747Q413
1747 515 1718T641 1689Q657 1689 665 1696T675 1711T676 1735H831Q831 1437 675 1437Q625 1437 522 1473T371 1510Q356 1510 346 1506T332 1497T325 1481T322 1466T322 1448Z" />
<glyph unicode="&#xe4;" horiz-adv-x="976" d="M552 295V616Q386 482 386 322Q386 282 401 254T454 225Q475 225 495 238T525 262T552 295ZM620 0L587 135Q558 44 492 8T328 -29Q256 -29 202 -1T118 74T73 176T58 291Q58 359 72 417T107 519T167 605T242 674T336
733T438 784T551 833V943Q551 1012 534 1046T476 1080Q448 1080 431 1069T406 1034T397 993T395 943V869H68Q68 1094 181 1214T509 1335Q659 1335 772 1226T885 967V347Q885 186 928 0H620ZM823 1693V2001H1127V1693H823ZM370 1693V2001H673V1693H370Z" />
<glyph unicode="&#xe5;" horiz-adv-x="976" d="M552 295V616Q386 482 386 322Q386 282 401 254T454 225Q475 225 495 238T525 262T552 295ZM620 0L587 135Q558 44 492 8T328 -29Q256 -29 202 -1T118 74T73 176T58 291Q58 359 72 417T107 519T167 605T242 674T336
733T438 784T551 833V943Q551 1012 534 1046T476 1080Q448 1080 431 1069T406 1034T397 993T395 943V869H68Q68 1094 181 1214T509 1335Q659 1335 772 1226T885 967V347Q885 186 928 0H620ZM240 1823T240 1932T311 2106T493 2171T674 2106T746 1932T675 1758T493
1693T312 1758ZM493 1814Q532 1814 551 1851T571 1931T552 2012T493 2050Q453 2050 433 2013T412 1933Q412 1888 432 1851T493 1814Z" />
<glyph unicode="&#xe6;" horiz-adv-x="1427" d="M894 964V804Q902 806 915 809T963 825T1024 856T1071 903T1093 968Q1093 1014 1065 1046T978 1078Q942 1078 918 1040T894 964ZM581 421L575 586Q508 563 464 535T399 475T373 416T366 354Q366 304 390 265T459
225Q520 225 550 282T581 421ZM400 869H73Q73 1087 182 1211T486 1336Q490 1336 500 1336T514 1335Q569 1333 626 1305T718 1233Q763 1279 833 1307T978 1335Q1060 1335 1134 1304T1259 1223T1338 1115T1368 998Q1368 943 1349 897T1306 820T1235 761T1157 719T1068
690T990 672T916 659Q909 657 904 657T894 655V346Q894 236 958 236Q1028 236 1028 384Q1028 407 1027 442T1025 486H1359V339Q1359 175 1256 78T988 -29Q896 -29 811 20T703 145Q659 65 569 18T391 -29T230 5T110 113T63 291Q63 359 76 414T110 509T169 583T242
639T335 682T439 716T556 746V881Q556 1070 469 1070Q397 1070 397 950Q397 934 398 907T400 869Z" />
<glyph unicode="&#xe7;" horiz-adv-x="928" d="M78 334V894Q78 1102 177 1218T479 1335Q683 1335 781 1219T880 894V780H549V929Q549 1007 536 1043T479 1080Q415 1080 415 981V335Q415 225 479 225Q503 225 517 235T538 269T547 318T549 390V529H880V334Q880
226 824 142T677 14T479 -29Q314 -29 196 71T78 334ZM338 -571V-410Q341 -410 359 -410T395 -411T437 -411T482 -407T520 -400T548 -388T559 -368Q559 -358 555 -349T543 -331T526 -315T504 -300T481 -287T456 -276T433 -266T411 -258T394 -252V-10H565V-139Q786
-243 786 -372Q786 -413 768 -445T722 -498T652 -533T573 -555T486 -566T407 -570T338 -571Z" />
<glyph unicode="&#xe8;" horiz-adv-x="940" d="M415 801H546V981Q546 1080 479 1080Q415 1080 415 981V801ZM78 339V894Q78 1102 177 1218T479 1335Q683 1335 781 1219T880 894V624H415V335Q415 225 479 225Q549 225 549 343V486H880V339Q880 176 762 74T479 -29T196
74T78 339ZM377 1437L100 1879H446L582 1437H377Z" />
<glyph unicode="&#xe9;" horiz-adv-x="940" d="M415 801H546V981Q546 1080 479 1080Q415 1080 415 981V801ZM78 339V894Q78 1102 177 1218T479 1335Q683 1335 781 1219T880 894V624H415V335Q415 225 479 225Q549 225 549 343V486H880V339Q880 176 762 74T479 -29T196
74T78 339ZM377 1437L513 1879H858L581 1437H377Z" />
<glyph unicode="&#xea;" horiz-adv-x="940" d="M415 801H546V981Q546 1080 479 1080Q415 1080 415 981V801ZM78 339V894Q78 1102 177 1218T479 1335Q683 1335 781 1219T880 894V624H415V335Q415 225 479 225Q549 225 549 343V486H880V339Q880 176 762 74T479 -29T196
74T78 339ZM131 1437L332 1843H622L828 1437H553L478 1639L405 1437H131Z" />
<glyph unicode="&#xeb;" horiz-adv-x="940" d="M415 801H546V981Q546 1080 479 1080Q415 1080 415 981V801ZM78 339V894Q78 1102 177 1218T479 1335Q683 1335 781 1219T880 894V624H415V335Q415 225 479 225Q549 225 549 343V486H880V339Q880 176 762 74T479 -29T196
74T78 339ZM809 1693V2001H1113V1693H809ZM356 1693V2001H659V1693H356Z" />
<glyph unicode="&#xec;" horiz-adv-x="532" d="M124 0V1305H461V0H124ZM190 1436L-87 1878H259L395 1436H190Z" />
<glyph unicode="&#xed;" horiz-adv-x="532" d="M124 0V1305H461V0H124ZM191 1436L327 1878H672L395 1436H191Z" />
<glyph unicode="&#xee;" horiz-adv-x="532" d="M124 0V1305H461V0H124ZM-56 1436L145 1842H435L641 1436H366L291 1638L218 1436H-56Z" />
<glyph unicode="&#xef;" horiz-adv-x="532" d="M124 0V1305H461V0H124ZM367 1436V1744H671V1436H367ZM-86 1436V1744H217V1436H-86Z" />
<glyph unicode="&#xf0;" horiz-adv-x="988" d="M552 340V874Q552 906 533 924T487 942T441 923T422 868V340Q422 319 423 305T430 273T449 246T483 236Q552 236 552 340ZM87 341V892Q87 1034 175 1120T380 1206Q479 1206 553 1148Q553 1292 541 1360L387 1282L321
1422L476 1501Q406 1570 216 1570L264 1835Q615 1835 765 1648L908 1721L974 1581L840 1513Q889 1380 889 1188V341Q889 233 832 147T682 16T483 -29Q319 -29 203 74T87 341Z" />
<glyph unicode="&#xf1;" horiz-adv-x="1005" d="M94 0V1305H431V1213Q479 1268 546 1301T687 1334Q756 1334 810 1291T891 1184T918 1052V0H581V993Q581 1080 525 1080Q519 1080 513 1079T500 1074T488 1068T476 1059T466 1050T455 1040T446 1030T438 1020L431
1012V0H94ZM335 1447H168Q168 1498 171 1537T187 1617T218 1685T272 1729T353 1746Q426 1746 528 1717T654 1688Q670 1688 678 1695T688 1710T689 1734H844Q844 1436 688 1436Q638 1436 535 1472T384 1509Q369 1509 359 1505T345 1496T338 1480T335 1465T335 1447Z"
/>
<glyph unicode="&#xf2;" horiz-adv-x="973" d="M561 335V981Q561 1080 484 1080Q415 1080 415 981V335Q415 313 416 299T424 265T445 235T484 225Q561 225 561 335ZM78 339V894Q78 1103 176 1218T484 1334T794 1219T895 894V339Q895 176 774 74T484 -29Q375 -29
283 15T135 145T78 339ZM384 1436L107 1878H453L589 1436H384Z" />
<glyph unicode="&#xf3;" horiz-adv-x="973" d="M561 335V981Q561 1080 484 1080Q415 1080 415 981V335Q415 313 416 299T424 265T445 235T484 225Q561 225 561 335ZM78 339V894Q78 1103 176 1218T484 1334T794 1219T895 894V339Q895 176 774 74T484 -29Q375 -29
283 15T135 145T78 339ZM385 1436L521 1878H866L589 1436H385Z" />
<glyph unicode="&#xf4;" horiz-adv-x="973" d="M561 335V981Q561 1080 484 1080Q415 1080 415 981V335Q415 313 416 299T424 265T445 235T484 225Q561 225 561 335ZM78 339V894Q78 1103 176 1218T484 1334T794 1219T895 894V339Q895 176 774 74T484 -29Q375 -29
283 15T135 145T78 339ZM138 1436L339 1842H629L835 1436H560L485 1638L412 1436H138Z" />
<glyph unicode="&#xf5;" horiz-adv-x="973" d="M561 335V981Q561 1080 484 1080Q415 1080 415 981V335Q415 313 416 299T424 265T445 235T484 225Q561 225 561 335ZM78 339V894Q78 1103 176 1218T484 1334T794 1219T895 894V339Q895 176 774 74T484 -29Q375 -29
283 15T135 145T78 339ZM302 1444H135Q135 1495 138 1534T154 1614T185 1682T239 1726T320 1743Q393 1743 495 1714T621 1685Q637 1685 645 1692T655 1707T656 1731H811Q811 1433 655 1433Q605 1433 502 1469T351 1506Q336 1506 326 1502T312 1493T305 1477T302
1462T302 1444Z" />
<glyph unicode="&#xf6;" horiz-adv-x="973" d="M561 335V981Q561 1080 484 1080Q415 1080 415 981V335Q415 313 416 299T424 265T445 235T484 225Q561 225 561 335ZM78 339V894Q78 1103 176 1218T484 1334T794 1219T895 894V339Q895 176 774 74T484 -29Q375 -29
283 15T135 145T78 339ZM817 1692V2000H1121V1692H817ZM364 1692V2000H667V1692H364Z" />
<glyph unicode="&#xf7;" horiz-adv-x="696" d="M200 236V523H487V236H200ZM200 890V1177H487V890H200ZM6 583V806H682V583H6Z" />
<glyph unicode="&#xf8;" horiz-adv-x="983" d="M566 346V964Q566 1063 489 1063Q420 1063 420 964V346Q420 324 421 310T429 276T450 246T489 236Q566 236 566 346ZM208 -233L281 21Q190 68 137 150T83 339V894Q83 1103 181 1218T489 1334Q580 1334 652 1311L725
1564L802 1544L725 1278Q900 1175 900 894V339Q900 176 779 74T489 -28Q420 -28 354 -8L284 -253L208 -233Z" />
<glyph unicode="&#xf9;" horiz-adv-x="1006" d="M87 253V1305H424V335Q424 225 470 225Q515 225 575 299V1305H912V0H575V113Q524 51 456 11T318 -29Q215 -29 151 58T87 253ZM397 1436L120 1878H466L602 1436H397Z" />
<glyph unicode="&#xfa;" horiz-adv-x="1006" d="M87 253V1305H424V335Q424 225 470 225Q515 225 575 299V1305H912V0H575V113Q524 51 456 11T318 -29Q215 -29 151 58T87 253ZM397 1436L533 1878H878L601 1436H397Z" />
<glyph unicode="&#xfb;" horiz-adv-x="1006" d="M87 253V1305H424V335Q424 225 470 225Q515 225 575 299V1305H912V0H575V113Q524 51 456 11T318 -29Q215 -29 151 58T87 253ZM151 1436L352 1842H642L848 1436H573L498 1638L425 1436H151Z" />
<glyph unicode="&#xfc;" horiz-adv-x="1006" d="M87 253V1305H424V335Q424 225 470 225Q515 225 575 299V1305H912V0H575V113Q524 51 456 11T318 -29Q215 -29 151 58T87 253ZM574 1692V2000H878V1692H574ZM121 1692V2000H424V1692H121Z" />
<glyph unicode="&#xfd;" horiz-adv-x="872" d="M270 117Q270 248 217 498T94 1013T18 1305H325L446 577L552 1305H861L576 -35Q561 -103 530 -153T460 -233T365 -281T255 -305T130 -311H87V-78Q187 -76 228 -31T270 117ZM316 1393L452 1835H797L520 1393H316Z" />
<glyph unicode="&#xfe;" horiz-adv-x="988" d="M99 -371V1800H436V1217Q475 1270 529 1302T643 1335Q753 1335 827 1249T902 1051V250Q902 138 828 55T643 -29Q582 -29 528 5T436 98V-371H99ZM567 310V997Q567 1083 521 1083Q516 1083 511 1082T501 1078T491 1071T481
1063T472 1054T463 1044T455 1033T448 1023T441 1013T436 1005V297Q475 236 500 222Q511 216 521 216Q541 216 552 232T565 265T567 310Z" />
<glyph unicode="&#xff;" horiz-adv-x="872" d="M270 117Q270 248 217 498T94 1013T18 1305H325L446 577L552 1305H861L576 -35Q561 -103 530 -153T460 -233T365 -281T255 -305T130 -311H87V-78Q187 -76 228 -31T270 117ZM761 1492V1800H1065V1492H761ZM308 1492V1800H611V1492H308Z"
/>
<glyph unicode="&#x2013;" horiz-adv-x="528" d="M4 453V676H521V453H4Z" />
<glyph unicode="&#x2014;" horiz-adv-x="827" d="M4 453V676H821V453H4Z" />
<glyph unicode="&#x2018;" horiz-adv-x="562" d="M425 1281H128Q128 1308 126 1360T123 1451T124 1542T134 1632T157 1710T197 1776T261 1818T353 1834L436 1665Q403 1666 375 1660T322 1632T297 1578H425V1281Z" />
<glyph unicode="&#x2019;" horiz-adv-x="562" d="M199 1281L115 1450Q170 1449 211 1468T256 1537H128V1834H424Q424 1807 426 1755T429 1664T428 1573T418 1483T395 1405T355 1339T291 1297T199 1281Z" />
<glyph unicode="&#x201a;" horiz-adv-x="429" d="M127 -321L57 103H361L290 -321H127Z" />
<glyph unicode="&#x201c;" horiz-adv-x="962" d="M813 1281H516Q516 1308 514 1361T511 1452T512 1542T522 1632T545 1711T586 1777T650 1818T742 1834L824 1665Q770 1666 729 1646T685 1578H813V1281ZM428 1281H131Q131 1308 129 1361T126 1452T127 1542T137
1632T160 1711T201 1777T265 1818T357 1834L440 1665Q406 1666 378 1660T326 1633T300 1578H428V1281Z" />
<glyph unicode="&#x201d;" horiz-adv-x="962" d="M587 1281L503 1450Q558 1449 599 1468T644 1537H516V1834H813Q813 1807 815 1754T818 1663T817 1573T807 1483T784 1404T743 1338T679 1297T587 1281ZM203 1281L119 1450Q152 1449 180 1455T233 1482T259 1537H131V1834H428Q428
1807 430 1755T433 1664T432 1573T422 1483T399 1405T359 1339T295 1297T203 1281Z" />
<glyph unicode="&#x201e;" horiz-adv-x="762" d="M454 -320L383 104H688L616 -320H454ZM130 -320L60 104H364L293 -320H130Z" />
<glyph unicode="&#x2022;" horiz-adv-x="990" d="M566 335T494 335T357 359T238 430T153 551T121 718Q121 811 153 886T238 1008T357 1080T494 1105Q566 1105 632 1080T751 1009T837 887T869 718Q869 626 837 552T752 431T632 360Z" />
<glyph unicode="&#x2039;" horiz-adv-x="618" d="M527 64L79 576V704L527 1216V896L271 641L527 384V64Z" />
<glyph unicode="&#x203a;" horiz-adv-x="600" d="M79 64V384L335 641L79 896V1216L527 704V576L79 64Z" />
</font>
</defs>
</svg>
